منتديات الجزائري
السلام عليكم اخي شرفتنا بزيارتك للمنتدا وارجو ان تسجل وتشارك
ف المنتدى بامس الحاجة لمن هم مثلك
شكــــــــــــــرا



 
الرئيسيةالرئيسية  اليوميةاليومية  س .و .جس .و .ج  بحـثبحـث  الأعضاءالأعضاء  المجموعاتالمجموعات  التسجيلالتسجيل  دخول  

شاطر | 
 

  Buried 2010 R5 Cam Audio H264

اذهب الى الأسفل 
كاتب الموضوعرسالة
MIMO.BOULALL
معلومات العضو
avatar

الجنس :
البلد :
الْمَشِارَكِات : 1653
السٌّمعَة : 5

مُساهمةموضوع: Buried 2010 R5 Cam Audio H264   الجمعة نوفمبر 26, 2010 10:47 pm





Genrerama | Mystery | Thriller
Language:English
IMDb:http://www.imdb.com/title/tt1462758/
SourceVD9/Audio:Imagine.Thx

General
Complete name :Buried 2010 R5 Cam audio H264 Feel-Free
Format : MPEG-4
Format profile : Base Media
Codec ID : isom
File size : 692 MiB
Duration : 1h 31mn
Overall bit rate : 1 061 Kbps
Video #2
Codec ID : avc1
Codec ID/Info : Advanced Video Coding
Duration : 1h 31mn
Bit rate mode : Variable
Bit rate : 955 Kbps
Width : 720 pixels
Height : 304 pixels
Display aspect ratio : 2.35:1
Frame rate mode : Constant
Frame rate : 29.970 fps
Original frame rate : 29.000 fps
Resolution : 24 bits
Colorimetry : 4:2:0
Scan type : Progressive
Bits/(Pixel*Frame) : 0.146
Stream size : 623 MiB (90%)
Audio #1
ID : 1
Format : AAC
Format/Info : Advanced Audio Codec
Format version : Version 4
Format profile : LC
Format settings, SBR : No
Codec ID : 40
Duration : 1h 31mn
Bit rate mode : Constant
Bit rate : 128 Kbps
Channel(s) : 2 channels
Channel positions : L R
Sampling rate : 48.0 KHz
Resolution : 16 bits
Stream size : 64.6 MiB (9%)

Plot:
Paul is a U.S. contractor working in Iraq. After an attack by a group of Iraqis he
wakes to find he is buried alive inside a coffin. With only a lighter and a cell phone it's
a race against time to escape this claustrophobic death trap.







[ Check Download Links ]
rapidshare.com Buried.2010.R5.CAM.Audio.H264-FEEL-FREE.BlackShare.Org.part1.rar
rapidshare.com Buried.2010.R5.CAM.Audio.H264-FEEL-FREE.BlackShare.Org.part2.rar
rapidshare.com Buried.2010.R5.CAM.Audio.H264-FEEL-FREE.BlackShare.Org.part3.rar
rapidshare.com Buried.2010.R5.CAM.Audio.H264-FEEL-FREE.BlackShare.Org.part4.rar
or
fileserve.com wAbwBFT/Buried.2010.R5.CAM.Audio.H264-FEEL-FREE.BlackShare.Org.part1.rar
fileserve.com sTYhbR3/Buried.2010.R5.CAM.Audio.H264-FEEL-FREE.BlackShare.Org.part2.rar
fileserve.com H8jXH2h/Buried.2010.R5.CAM.Audio.H264-FEEL-FREE.BlackShare.Org.part3.rar
fileserve.com dub8fvN/Buried.2010.R5.CAM.Audio.H264-FEEL-FREE.BlackShare.Org.part4.rar
الرجوع الى أعلى الصفحة اذهب الى الأسفل
http://alger.123.st
MeSsI
معلومات العضو
avatar

الجنس :
البلد :
الْمَشِارَكِات : 4640
السٌّمعَة : -11
الْعُمْر : 19

مُساهمةموضوع: رد: Buried 2010 R5 Cam Audio H264   السبت نوفمبر 27, 2010 10:23 am

شكرا علي الموضوع


الرجوع الى أعلى الصفحة اذهب الى الأسفل
http://alger.123.st
 
Buried 2010 R5 Cam Audio H264
الرجوع الى أعلى الصفحة 
صفحة 1 من اصل 1

صلاحيات هذا المنتدى:لاتستطيع الرد على المواضيع في هذا المنتدى
منتديات الجزائري :: البرامج الكاملة :: منتدى التورنت :: حميل افلام تورنت,-
انتقل الى: